Sardar Mohammad 2017 720p HD Punjabi GOPISAHI

January 19, 2018

Format                         : Matroska
Format version                 : Version 4 / Version 2
File size                      : 572 MiB
Duration                       : 2 h 19 min
Overall bit rate               : 572 kb/s
Movie name                     : Sardar Mohammad 2017 GOPISAHIVideo
Format                         : AVC
Codec ID                       : V_MPEG4/ISO/AVC
Duration                       : 2 h 19 min
Bit rate                       : 500 kb/s
Width                          : 1 280 pixels
Height                         : 536 pixels
Display aspect ratio           : 2.40:1
Frame rate mode                : Constant
Frame rate                     : 24.000 FPS
Stream size                    : 500 MiB (87%)
Writing library                : x264 core 148 r2708 86b7198
Language                       : PanjabiAudio
Format                         : AAC
Duration                       : 2 h 19 min
Bit rate                       : 69.9 kb/s
Channel(s)                     : 6 channels
Channel positions              : Front: L C R, Side: L R, LFE
Sampling rate                  : 44.1 kHz
Frame rate                     : 43.066 FPS (1024 SPF)
Compression mode               : Lossy
Stream size                    : 70.0 MiB (12%)
Language                       : Panjabi

drive

Comments

Leave a Reply

Your email address will not be published.

You may also like

eskisehir1 - adanasitesi.com -

Queenbet Giriş