Mirzya (2016) Hindi 720p DvDScr x264 AC3 MAXPRO

October 12, 2016

Mirzya (2016) Hindi 720p DvDScr x264 AC3 MAXPRO


Format: Matroska
Format version: Version 2
File size: 1.50 GiB
Duration: 2h 9mn
Overall bit rate: 1 658 Kbps

Video
ID: 1
Format: AVC
Format/Info: Advanced Video Codec
Format profile: [email protected]
Format settings, CABAC: Yes
Format settings, ReFrames: 4 frames
Codec ID : V_MPEG4/ISO/AVC
Duration: 2h 9mn
Bit rate: 1 528 Kbps
Width: 1 280 pixels
Height: 536 pixels
Display aspect ratio: 2.40:1
Frame rate mode: Constant
Frame rate: 23.976 fps
Color space: YUV
Chroma subsampling: 4:2:0
Bit depth: 8 bits
Scan type: Progressive
Bits/(Pixel*Frame) : 0.093
Stream size: 1.35 GiB (90%)
Writing library: x264 core 148 r2638 7599210

Audio
ID: 2
Format: AC-3
Format/Info: Audio Coding 3
Mode extension: CM (complete main)
Format settings, Endianness: Big
Codec ID: A_AC3
Duration: 2h 9mn
Bit rate mode: Constant
Bit rate: 128 Kbps
Channel(s): 2 channels
Channel positions: Front: L R
Sampling rate: 48.0 KHz
Compression mode: Lossy
Stream size: 118 MiB (8%)
Default: Yes
Forced: No
Source:DDR
__B!RoH!_MoN__





TORRABLE.COM.MIRRORS

Comments

Leave a Reply

Your email address will not be published.

You may also like

eskisehir1 - adanasitesi.com -
food subscription box