Ki & Ka (2016) DVDRIP 1CDRIP x264 AAC ESub DDR Download

June 3, 2016

Ki & Ka (2016) DVDRIP 1CDRIP x264 AAC ESub DDR Download

ki-and-ka-movie-poster-1

General
Source = DVD9 @ ICTV
Format : AVI
File size : 694 MiB
Duration : 2h 3mn
Overall bit rate mode : Variable
Overall bit rate : 786 Kbps

Video
Format : MPEG-4 Visual
Format profile : Advanced [email protected]
Format settings, BVOP : 2
Format settings, QPel : No
Format settings, GMC : No warppoints
Format settings, Matrix : Custom
Codec ID : XVID
Duration : 2h 3mn
Bit rate : 698 Kbps
Width : 640 pixels
Height : 272 pixels
Display aspect ratio : 2.35:1
Frame rate : 23.976 (24000/1001) fps
Color space : YUV
Chroma subsampling : 4:2:0
Bit depth : 8 bits
Scan type : Progressive
Compression mode : Lossy
Bits/(Pixel*Frame) : 0.167
Stream size : 616 MiB (89%)
Writing library : XviD 67

Audio #1
Format : MPEG Audio
Format version : Version 1
Format profile : Layer 3
Mode : Joint stereo
Mode extension : MS Stereo
Codec ID : 55
Codec ID/Hint : MP3
Duration : 2h 3mn
Bit rate mode : Variable
Bit rate : 80.0 Kbps
Channel(s) : 2 channels
Sampling rate : 32.0 KHz
Compression mode : Lossy
Stream size : 68.9 MiB (10%)


kika

Ki & Ka (2016) 1CD DvDrip Sample 3.5 MB

Download Links

DOWNLOAD TORRENT

Watch Online

Openload
Streamin

Download Links

DIRECT LINK ZIP FILE
TORRENT LINK FULL SPEED

TORRENT FILE FULL SPEED 2
DIRECT LINK ZIP FILE 2

Download From Indishare
Download From Uptobox
Download From Usersfiles
Download From Filescdn
Download From Uppit
Download From Userscloud
Download From Bdupload
Download From Downace
Download From Clicknupload
Download From Filerio
Download From 1fichier
Download From Multiup.org

indishare.me
bdupload.org
4upld.com[IR]
arabloads.net
embedupload.com
filescdn.com
hugefiles.net
multiup.org
openload.io
ozofiles.com
rapidgator.net
rodfile.com
temp-share.com
turbobit.net
tusfiles.net
upfile.mobi
upload.af
uploadboy.com
uploaded.net
uploadkadeh.ir
uploadx.org
uppit.com
uptobox.com
userscloud.com
usersfiles.com

http://uptobox.com/7ohw0u388jtl

http://bdupload.org/l087260yue93

http://www.indishare.me/4idyhmv9ca7i

http://uptobox.com/rov2ckn8btyh

http://www.indishare.me/aw5nmrt1trjw

http://bdupload.org/6wzxtte5mj5z

http://uptobox.com/6p1amdqq4we8

http://bdupload.org/n3lck0pshzqp

http://www.indishare.me/nxtd2rqhzjia

http://www.multiup.org/download/80bdf1387108e12234f3a6464f9f06fb/Ki_20_26_20Ka_20_282016_29_20DVDRIP_201CDRIP_20x264_20AAC_20ESub_20_5BDDR_5D.mkv_f_Ki_20_26_20Ka_20_282016_29_20DVDRIP_201CDRIP_20x264_20AAC_20ESub_20_5BDDR_5D.mkv

Comments

Leave a Reply

Your email address will not be published.

You may also like

eskisehir1 - adanasitesi.com -

Queenbet Giriş