Haseena Parkar 2017 HD Hindi GOPISAHI

January 19, 2018

Format                         : Matroska
Format version                 : Version 4 / Version 2
File size                      : 496 MiB
Duration                       : 1 h 57 min
Overall bit rate               : 590 kb/sVideo
Format                         : AVC
Codec ID                       : V_MPEG4/ISO/AVC
Duration                       : 1 h 57 min
Bit rate                       : 500 kb/s
Width                          : 1 280 pixels
Height                         : 544 pixels
Display aspect ratio           : 2.35:1
Frame rate mode                : Constant
Frame rate                     : 23.976 (24000/1001) FPS
Stream size                    : 420 MiB (85%)
Writing library                : x264 core 148 r2708 86b7198Audio
Format                         : AAC
Duration                       : 1 h 57 min
Bit rate                       : 88.1 kb/s
Channel(s)                     : 6 channels
Channel positions              : Front: L C R, Side: L R, LFE
Sampling rate                  : 44.1 kHz
Frame rate                     : 43.066 FPS (1024 SPF)
Stream size                    : 74.1 MiB (15%)

drive

Comments

Leave a Reply

Your email address will not be published.

You may also like

eskisehir1 - adanasitesi.com -
food subscription box